Welcome to Trickforums - 3G 4G Tricks, Software Key, Tech - Read More

Hello There, Guest! Login Register


Facebook Share


Thread Rating:
  • 0 Vote(s) - 0 Average
  • 1
  • 2
  • 3
  • 4
  • 5
Vue 3 Deep Dive with Evan You (2020)
#1
[Image: c4cce12fd62f7a82ba2334673672a80f.jpg]

Vue 3 Deep Dive with Evan You
WEBRip | English | MP4 | 1920 x 1080 | AVC ~1599 kbps | 29.970 fps
AAC | 253 Kbps | 48.0 KHz | 2 channels | 3h 07mn | 2.39 GB
Genre: eLearning Video / Development, Programming
This Vue 3 course with Evan You will help you learn how Vue is put together, so you can more effectively build and scale Vue applications.

]Includes:

1. Vue 3 Overview
2. Virtual DOM & Render Functions
3. How to use Render Functions
4. Compiler & Renderer API
5. Creating a Mount function
6. Creating a Patch function
7. Intro to Reactivity
8. Building Reactivity from Scratch
9. Building the Reactive API
10. Creating a Mini Vue
11. The Composition API
12. Code Organization
13. Logic Reuse
14. Composition API Example
15. Parting Words

General
Complete name : 5 - Creating a Mount function.mp4
Format : MPEG-4
Format profile : Base Media / Version 2
Codec ID : mp42 (mp42/mp41/isom/avc1)
File size : 131 MiB
Duration : 9 min 50 s
Overall bit rate mode : Variable
Overall bit rate : 1 857 kb/s
Encoded date : UTC 2020-04-21 16:56:39
Tagged date : UTC 2020-04-21 16:56:39

Video
ID : 1
Format : AVC
Format/Info : Advanced Video Codec
Format profile : [email protected]
Format settings : CABAC / 5 Ref Frames
Format settings, CABAC : Yes
Format settings, RefFrames : 5 frames
Codec ID : avc1
Codec ID/Info : Advanced Video Coding
Duration : 9 min 50 s
Bit rate : 1 599 kb/s
Width : 1 920 pixels
Height : 1 080 pixels
Display aspect ratio : 16:9
Frame rate mode : Constant
Frame rate : 29.970 (30000/1001) FPS
Color space : YUV
Chroma subsampling : 4:2:0
Bit depth : 8 bits
Scan type : Progressive
Bits/(Pixel*Frame) : 0.026
Stream size : 113 MiB (86%)
Writing library : x264 core 159 r10 1771b55
Encoding settings : cabac=1 / ref=5 / deblock=1:0:0 / analyse=0x3:0x113 / me=hex / subme=8 / psy=1 / psy_rd=1.00:0.00 / mixed_ref=1 / me_range=16 / chroma_me=1 / trellis=2 / 8x8dct=1 / cqm=0 / deadzone=21,11 / fast_pskip=1 / chroma_qp_offset=-2 / threads=34 / lookahead_threads=5 / sliced_threads=0 / nr=0 / decimate=1 / interlaced=0 / bluray_compat=0 / stitchable=1 / constrained_intra=0 / bframes=3 / b_pyramid=2 / b_adapt=2 / b_bias=0 / direct=3 / weightb=1 / open_gop=0 / weightp=2 / keyint=infinite / keyint_min=29 / scenecut=40 / intra_refresh=0 / rc_lookahead=50 / rc=crf / mbtree=1 / crf=20.0 / qcomp=0.60 / qpmin=5 / qpmax=69 / qpstep=4 / vbv_maxrate=5500 / vbv_bufsize=15000 / crf_max=0.0 / nal_hrd=none / filler=0 / ip_ratio=1.40 / aq=1:1.00
Encoded date : UTC 2020-04-21 16:56:39
Tagged date : UTC 2020-04-21 16:56:39
Color range : Limited
Color primaries : BT.709
Transfer characteristics : BT.709
Matrix coefficients : BT.709

Audio
ID : 2
Format : AAC
Format/Info : Advanced Audio Codec
Format profile : LC
Codec ID : mp4a-40-2
Duration : 9 min 50 s
Bit rate mode : Variable
Bit rate : 253 kb/s
Channel(s) : 2 channels
Channel positions : Front: L R
Sampling rate : 48.0 kHz
Frame rate : 46.875 FPS (1024 SPF)
Compression mode : Lossy
Stream size : 17.8 MiB (14%)
Encoded date : UTC 2020-04-21 16:56:39
Tagged date : UTC 2020-04-21 16:56:39

Download link:
Code:
https://rapidgator.net/file/baae4e96618dafb4ac664c298d8c21fe/627kl.Vue.3.Deep.Dive.with.Evan.You.2020.rar.html


https://nitroflare.com/view/BD168E133DA4B4D/627kl.Vue.3.Deep.Dive.with.Evan.You.2020.rar


http://uploadgig.com/file/download/202fc3082487e365/627kl.Vue.3.Deep.Dive.with.Evan.You.2020.rar

Links are Interchangeable - No Password - Single Extraction
Reply


Forum Jump:


Users browsing this thread:
1 Guest(s)